<?xml version="1.0" standalone="no"?>
<!DOCTYPE svg PUBLIC "-//W3C//DTD SVG 1.1//EN" "http://www.w3.org/Graphics/SVG/1.1/DTD/svg11.dtd" >
<svg xmlns="http://www.w3.org/2000/svg">
<metadata>Generated by IcoMoon</metadata>
<defs>
<font id="icomoon" horiz-adv-x="1024">
<font-face units-per-em="1024" ascent="960" descent="-64" />
<missing-glyph horiz-adv-x="1024" />
<glyph unicode="&#x20;" horiz-adv-x="512" d="" />
<glyph unicode="&#xe900;" glyph-name="instagram" d="M784.152 872.742h-549.344c-95.423 0-173.054-77.613-173.054-173.036v-549.362c0-95.423 77.631-173.036 173.054-173.036h549.362c95.423 0 173.036 77.613 173.036 173.036v549.38c-0.018 95.423-77.631 173.018-173.054 173.018zM833.787 769.552l19.796 0.072v-151.777l-151.271-0.488-0.524 151.759 131.999 0.433zM381.672 516.934c28.683 39.683 75.211 65.71 127.808 65.71s99.125-26.028 127.772-65.71c18.658-25.901 29.839-57.582 29.839-91.9 0-86.897-70.768-157.593-157.629-157.593-86.915 0-157.611 70.695-157.611 157.593 0.018 34.318 11.162 65.999 29.821 91.9zM869.948 150.362c0-47.341-38.491-85.795-85.795-85.795h-549.344c-47.323 0-85.813 38.454-85.813 85.795v366.572h133.66c-11.542-28.394-18.026-59.407-18.026-91.9 0-134.979 109.818-244.869 244.851-244.869 135.015 0 244.833 109.89 244.833 244.869 0 32.494-6.52 63.507-18.062 91.9h133.696v-366.572z" />
<glyph unicode="&#xe901;" glyph-name="arrow-bottom" horiz-adv-x="1707" d="M1675.776 744.448c28.16 26.795 28.16 70.315 0 96.768 0 0-101.717 96.768-101.717 96.768-27.989 26.795-73.216 26.795-101.205 0 0 0-624.981-608.597-624.981-608.597s-629.077 612.352-629.077 612.352c-27.989 26.965-73.557 26.965-101.547 0 0 0-101.547-96.597-101.547-96.597-27.989-26.624-27.989-69.973 0-96.768 0 0 781.312-757.76 781.312-757.76 28.16-26.283 73.387-26.283 101.547 0 0 0 777.216 753.835 777.216 753.835z" />
<glyph unicode="&#xe902;" glyph-name="arrow-left" horiz-adv-x="614" d="M451.379-45.261c19.354-20.48 50.586-20.48 69.734 0 0 0 69.632 73.114 69.632 73.114 19.251 20.070 19.251 52.838 0 72.909 0 0-335.667 347.546-335.667 347.546s338.432 350.618 338.432 350.618c19.251 20.173 19.251 52.838 0 73.011 0 0-69.632 73.216-69.632 73.216-19.149 20.070-50.381 20.070-69.632 0 0 0-443.085-460.186-443.085-460.186-19.149-20.275-19.149-52.941 0-73.216 0 0 440.218-457.011 440.218-457.011z" />
<glyph unicode="&#xe903;" glyph-name="arrow-right" horiz-adv-x="614" d="M156.57-45.261c-19.251-20.48-50.586-20.48-69.632 0 0 0-69.632 73.114-69.632 73.114-19.354 20.070-19.354 52.838 0 72.909 0 0 335.667 347.546 335.667 347.546s-338.432 350.618-338.432 350.618c-19.354 20.173-19.354 52.838 0 73.011 0 0 69.632 73.216 69.632 73.216 19.046 20.070 50.278 20.070 69.632 0 0 0 443.085-460.186 443.085-460.186 19.046-20.275 19.046-52.941 0-73.216 0 0-440.32-457.011-440.32-457.011z" />
<glyph unicode="&#xe904;" glyph-name="arrow-top" horiz-adv-x="1707" d="M1675.776 189.269c28.16-26.795 28.16-70.315 0-96.768 0 0-101.717-96.768-101.717-96.768-27.989-26.795-73.216-26.795-101.205 0 0 0-624.981 608.427-624.981 608.427s-629.077-612.181-629.077-612.181c-27.989-26.795-73.557-26.795-101.547 0 0 0-101.547 96.597-101.547 96.597-27.989 26.453-27.989 69.973 0 96.768 0 0 781.312 757.76 781.312 757.76 28.16 26.453 73.387 26.453 101.547 0 0 0 777.216-753.835 777.216-753.835z" />
<glyph unicode="&#xe905;" glyph-name="article" horiz-adv-x="878" d="M804.571-64c0 0-731.429 0-731.429 0-40.448 0-73.143 32.695-73.143 73.143 0 0 0 877.714 0 877.714 0 40.448 32.695 73.143 73.143 73.143 0 0 731.429 0 731.429 0 40.448 0 73.143-32.695 73.143-73.143 0 0 0-877.714 0-877.714 0-40.448-32.695-73.143-73.143-73.143zM731.429 813.714c0 0-585.143 0-585.143 0s0-731.429 0-731.429c0 0 585.143 0 585.143 0s0 731.429 0 731.429zM256 740.571c0 0 365.714 0 365.714 0 20.187 0 36.571-16.384 36.571-36.571 0 0 0-73.143 0-73.143 0-20.187-16.384-36.571-36.571-36.571 0 0-365.714 0-365.714 0-20.187 0-36.571 16.384-36.571 36.571 0 0 0 73.143 0 73.143 0 20.187 16.384 36.571 36.571 36.571zM256 521.143c0 0 365.714 0 365.714 0 20.187 0 36.571-16.384 36.571-36.571s-16.384-36.571-36.571-36.571c0 0-365.714 0-365.714 0-20.187 0-36.571 16.384-36.571 36.571s16.384 36.571 36.571 36.571zM256 374.857c0 0 365.714 0 365.714 0 20.187 0 36.571-16.384 36.571-36.571s-16.384-36.571-36.571-36.571c0 0-365.714 0-365.714 0-20.187 0-36.571 16.384-36.571 36.571s16.384 36.571 36.571 36.571zM256 228.571c0 0 365.714 0 365.714 0 20.187 0 36.571-16.384 36.571-36.571s-16.384-36.571-36.571-36.571c0 0-365.714 0-365.714 0-20.187 0-36.571 16.384-36.571 36.571s16.384 36.571 36.571 36.571z" />
<glyph unicode="&#xe906;" glyph-name="bookmark" horiz-adv-x="640" d="M320 151.744c0 0-268.8-204.032-268.8-204.032-28.288-21.44-51.2-9.856-51.2 25.984 0 0 0 906.56 0 906.56 0 35.84 33.024 78.848 83.968 78.848 0 0 478.016 0 478.016 0 52.032 0 78.016-31.424 78.016-78.848 0 0 0-906.56 0-906.56 0-35.84-22.912-47.424-51.2-25.984 0 0-268.8 204.032-268.8 204.032zM371.2 274.816c0 0 140.8-106.88 140.8-106.88s0 661.632 0 661.632c0 0-384 0-384 0s0-661.632 0-661.632c0 0 140.8 106.88 140.8 106.88 28.288 21.44 74.112 21.44 102.4 0z" />
<glyph unicode="&#xe907;" glyph-name="check" horiz-adv-x="1479" d="M534.187 244.11c0 0-371.029 348.16-371.029 348.16s-164.181-156.558-164.181-156.558c0 0 535.211-504.832 535.211-504.832s939.008 873.586 939.008 873.586c0 0-164.295 156.558-164.295 156.558s-774.713-716.914-774.713-716.914z" />
<glyph unicode="&#xe908;" glyph-name="close" d="M1024 856.576c0 0-103.424 103.424-103.424 103.424s-408.576-408.576-408.576-408.576c0 0-408.576 408.576-408.576 408.576s-103.424-103.424-103.424-103.424c0 0 408.576-408.576 408.576-408.576s-408.576-408.576-408.576-408.576c0 0 103.424-103.424 103.424-103.424s408.576 408.576 408.576 408.576c0 0 408.576-408.576 408.576-408.576s103.424 103.424 103.424 103.424c0 0-408.576 408.576-408.576 408.576s408.576 408.576 408.576 408.576z" />
<glyph unicode="&#xe909;" glyph-name="comment" d="M256-63.936c0 0-64 0-64 0-35.392 0-64 28.608-64 63.936 0 0 0 128.064 0 128.064s-64 0-64 0c-35.392 0-64 28.608-64 63.936 0 0 0 704 0 704 0 35.392 28.608 64.064 64 64.064 0 0 896 0 896 0 35.392 0 64-28.672 64-64.064 0 0 0-704 0-704 0-35.328-28.608-63.936-64-63.936 0 0-366.272 0-366.272 0s-304.768-182.912-304.768-182.912c-9.984-5.952-21.312-9.088-32.96-9.088zM128 256.064c0 0 64 0 64 0 35.392 0 64-28.672 64-64.064 0 0 0-117.376 0-117.376s287.040 172.288 287.040 172.288c9.984 6.016 21.312 9.152 32.96 9.152 0 0 320 0 320 0s0 575.936 0 575.936c0 0-768 0-768 0s0-575.936 0-575.936z" />
<glyph unicode="&#xe90a;" glyph-name="double-user" horiz-adv-x="1365" d="M1283.356 155.477c0 0-660.594 0-660.594 0-20.252 0-37.092 16.441-35.271 36.523 5.177 56.149 26.34 99.954 99.897 112.64 135.054 22.699 157.070 80.441 157.070 159.46 0 47.559-39.652 32.199-57.23 119.239-7.396 35.84-42.61 0.74-49.209 82.716 0 32.825 19.058 40.903 19.058 40.903s-9.5 48.981-13.198 86.244c-5.12 46.137 28.615 166.798 209.18 166.798 220.217 0 216.519-120.661 212.139-166.798-3.698-37.262-11.036-86.244-11.036-86.244s19.115-8.078 19.115-40.903c-6.599-81.977-40.391-46.876-47.73-82.716-17.636-87.040-55.808-71.68-55.808-119.239 0-79.019 16.156-136.761 152.007-159.46 72.875-12.686 92.444-56.491 97.052-112.64 1.65-20.082-15.132-36.523-35.442-36.523zM586.069 446.578c-6.599-81.92-40.334-46.876-47.673-82.716-17.636-86.983-55.808-71.623-55.808-119.182 0-79.019 16.156-136.818 151.95-159.46 72.875-12.686 92.501-56.491 97.109-112.64 1.65-20.139-15.189-36.58-35.499-36.58 0 0-660.537 0-660.537 0-20.309 0-37.092 16.441-35.271 36.58 5.12 56.149 26.34 99.954 99.84 112.64 135.054 22.642 157.070 80.441 157.070 159.46 0 47.559-39.595 32.199-57.23 119.182-7.339 35.84-42.553 0.796-49.209 82.716 0 32.882 19.115 40.96 19.115 40.96s-9.5 48.981-13.198 86.244c-5.177 46.080 28.615 166.798 209.18 166.798 220.16 0 216.519-120.718 212.082-166.798-3.641-37.262-10.98-86.244-10.98-86.244s19.058-8.078 19.058-40.96z" />
<glyph unicode="&#xe90b;" glyph-name="download" horiz-adv-x="1181" d="M1098.745 526.482h-74.745c-22.423 0-37.372-14.949-37.372-37.372v-336.35h-747.445v336.35c0 22.423-14.949 37.372-37.372 37.372h-74.745c-22.423 0-37.372-14.949-37.372-37.372v-411.095c0-44.847 29.898-74.745 74.745-74.745h896.934c44.847 0 74.745 29.898 74.745 74.745v411.095c0 14.949-22.423 37.372-37.372 37.372zM583.007 234.978c14.949-14.949 37.372-14.949 44.847 0l194.336 246.657c14.949 14.949 7.474 37.372-14.949 37.372h-119.591v343.825c0 22.423-14.949 37.372-37.372 37.372h-74.745c-22.423 0-37.372-14.949-37.372-37.372v-336.35h-127.066c-22.423 0-29.898-22.423-14.949-37.372l186.861-254.131z" />
<glyph unicode="&#xe90c;" glyph-name="eye" horiz-adv-x="1536" d="M1506.048 394.325c-185.771-286.976-462.165-458.325-739.328-458.325-278.357 0-569.173 183.381-740.693 467.2 0 0-26.027 43.008-26.027 43.008s24.491 43.947 24.491 43.947c161.536 289.877 445.952 469.845 742.229 469.845 282.709 0 552.448-172.373 740.181-472.832 0 0 29.099-46.677 29.099-46.677s-29.952-46.165-29.952-46.165zM766.72 789.333c-221.184 0-435.883-128.939-570.453-339.627 143.36-209.92 362.752-343.040 570.453-343.040 206.165 0 415.317 124.416 568.149 335.531-152.32 218.368-361.472 347.136-568.149 347.136zM768.085 192c-141.397 0-256.085 114.688-256.085 256s114.688 256 256.085 256c141.227 0 255.915-114.688 255.915-256s-114.688-256-255.915-256zM768 533.333c-47.189 0-85.333-38.229-85.333-85.333s38.144-85.333 85.333-85.333c47.189 0 85.333 38.229 85.333 85.333s-38.144 85.333-85.333 85.333z" />
<glyph unicode="&#xe90d;" glyph-name="f-fubiz" d="M512-64c-282.778 0-512 229.274-512 512.051s229.222 512 512 512c282.778 0 512-229.222 512-512s-229.222-512.051-512-512.051zM512 891.75c-245.043 0-443.75-198.656-443.75-443.699 0-245.094 198.707-443.75 443.75-443.75s443.75 198.656 443.75 443.75c0 245.043-198.707 443.699-443.75 443.699zM610.816 576.512c0 0-0.051 0-0.051 0-26.112 0-45.875 18.278-45.875 41.37 0 21.76 15.616 36.506 36.096 39.322-0.717 0.666-1.28 1.382-1.28 2.099-9.933 6.298-22.374 9.83-34.406 9.83-36.71 0-46.131-24.576-46.131-56.115 0 0 0-59.853 0-59.853s87.45 0 87.45 0c0 0 0-46.694 0-46.694s-87.45 0-87.45 0c0 0 0-206.694 0-206.694 0-20.326 7.526-26.931 27.29-26.931 0 0 43.315 0 43.315 0s0-46.694 0-46.694c0 0-221.952 0-221.952 0s0 46.694 0 46.694c0 0 38.81 0 38.81 0 19.763 0 28.467 6.605 28.467 26.931 0 0 0 206.694 0 206.694s-67.277 0-67.277 0c0 0 0 46.694 0 46.694s67.277 0 67.277 0c0 0 0 18.534 0 18.534 0 89.702 47.923 132.454 122.061 132.454 1.434 0 2.867 0 4.301-0.102 44.237-1.587 94.566-28.877 94.566-78.438 0-28.006-16.282-49.101-45.21-49.101z" />
<glyph unicode="&#xe90e;" glyph-name="facebook" horiz-adv-x="614" d="M556.032 778.274c0 0-123.563 0-123.563 0-18.569 0-61.781-28.604-61.781-60.689 0 0 0-121.31 0-121.31s185.344 0 185.344 0c0 0 0-181.999 0-181.999s-185.344 0-185.344 0c0 0 0-424.619 0-424.619s-185.344 0-185.344 0c0 0 0 424.619 0 424.619s-185.276 0-185.276 0c0 0 0 181.999 0 181.999s185.276 0 185.276 0c0 0 0 121.31 0 121.31 0 133.803 121.173 242.62 250.948 242.62 0 0 119.74 0 119.74 0s0-181.931 0-181.931z" />
<glyph unicode="&#xe90f;" glyph-name="googleplus" horiz-adv-x="1152" d="M59.84 711.488c0-85.056 30.976-146.368 92.032-182.528 49.984-29.376 108.032-33.792 138.24-33.792 7.296 0 13.184 8.192 17.28 8.384 0 0-9.536-43.008 36.608-105.536 0 0-2.048 0-2.048 0-80 0-341.12-23.488-341.12-219.904 0-199.936 239.744-218.048 287.808-218.048 3.904 0 6.016 0 6.016 0 0.576 0 3.968 0 9.856 0 30.848 0 110.656 3.584 184.768 36.544 96.128 42.752 144.896 117.056 144.896 220.992 0 100.352-74.304 160.064-128.576 203.712-33.088 26.56-61.696 49.6-61.696 72.064 0 22.656 20.864 39.744 47.36 61.376 42.688 35.072 83.072 84.992 83.072 179.264 0 82.816-11.776 138.432-84.032 173.76 7.552 3.52 35.712 6.080 48.896 7.744 39.168 4.928 98.048 10.56 98.048 39.744 0 0 0 5.696 0 5.696s-288.64 0-288.64 0c-2.88 0-288.768-9.728-288.768-249.472zM520.832 198.848c5.376-79.936-69.312-138.944-181.504-146.496-113.792-7.552-207.616 39.424-213.12 119.296-2.688 38.272 15.808 75.968 51.904 105.984 36.608 30.336 86.784 49.088 141.44 52.672 6.464 0.448 12.8 0.704 19.264 0.704 105.408 0 176.832-56.832 182.016-132.16zM446.272 766.208c27.968-90.304-14.272-184.64-81.728-202.112-7.744-1.856-15.744-2.944-23.808-2.944-61.76 0-122.944 57.152-145.664 136-12.608 44.288-11.584 82.944 2.88 120.192 14.336 36.672 39.936 61.376 72.192 69.632 7.744 2.048 15.808 3.072 23.872 3.072 74.56 0 122.56-28.224 152.256-123.84zM985.728 585.664c0 0 0 125.12 0 125.12s-127.872 0-127.872 0c0 0 0-125.12 0-125.12s-127.936 0-127.936 0c0 0 0-125.12 0-125.12s127.936 0 127.936 0c0 0 0-125.12 0-125.12s127.872 0 127.872 0c0 0 0 125.12 0 125.12s127.936 0 127.936 0c0 0 0 125.12 0 125.12s-127.936 0-127.936 0z" />
<glyph unicode="&#xe910;" glyph-name="grid" d="M0 704c0 0 256 0 256 0s0 256 0 256c0 0-256 0-256 0s0-256 0-256zM384-64c0 0 256 0 256 0s0 256 0 256c0 0-256 0-256 0s0-256 0-256zM0-64c0 0 256 0 256 0s0 256 0 256c0 0-256 0-256 0s0-256 0-256zM0 320c0 0 256 0 256 0s0 256 0 256c0 0-256 0-256 0s0-256 0-256zM384 320c0 0 256 0 256 0s0 256 0 256c0 0-256 0-256 0s0-256 0-256zM768 960c0 0 0-256 0-256s256 0 256 0c0 0 0 256 0 256s-256 0-256 0zM384 704c0 0 256 0 256 0s0 256 0 256c0 0-256 0-256 0s0-256 0-256zM768 320c0 0 256 0 256 0s0 256 0 256c0 0-256 0-256 0s0-256 0-256zM768-64c0 0 256 0 256 0s0 256 0 256c0 0-256 0-256 0s0-256 0-256z" />
<glyph unicode="&#xe911;" glyph-name="lock" horiz-adv-x="777" d="M516.627 572.61h-310.487v61.906c0 102.751 83.605 186.037 186.037 186.037 81.371 0 150.616-52.333 175.825-125.407 11.169-32.229 37.973-60.949 72.436-60.949v0c34.463 0 62.863 28.081 55.843 61.587-28.081 142.32-153.488 249.219-303.786 249.219-171.358 0-310.168-138.81-310.168-310.168v-61.906c-34.144 0-62.225-27.762-62.225-61.906v-496.524c0-34.144 27.762-61.906 62.225-61.906h620.654c34.144 0 61.906 27.762 61.906 61.906v496.204c0 34.463-27.762 61.906-61.906 61.906h-186.356zM640.758 76.086h-496.524v372.393h496.524v-372.393z" />
<glyph unicode="&#xe912;" glyph-name="menu" horiz-adv-x="1536" d="M0-64c0 0 1536 0 1536 0s0 170.667 0 170.667c0 0-1536 0-1536 0s0-170.667 0-170.667zM0 362.667c0 0 1536 0 1536 0s0 170.667 0 170.667c0 0-1536 0-1536 0s0-170.667 0-170.667zM0 960c0 0 0-170.667 0-170.667s1536 0 1536 0c0 0 0 170.667 0 170.667s-1536 0-1536 0z" />
<glyph unicode="&#xe913;" glyph-name="pics" horiz-adv-x="1280" d="M511.488-64.32c0 0 286.080 118.784 286.080 118.784s364.16 0 364.16 0c0 0 0 467.712 0 467.712s-45.312 0-45.312 0c0 0-49.088 118.72-49.088 118.72s212.864 0 212.864 0c0 0 0-705.216 0-705.216s-768.704 0-768.704 0zM271.808-64c0 0-272 664.512-272 664.512s858.112 359.68 858.112 359.68c0 0 271.936-664.512 271.936-664.512s-858.048-359.68-858.048-359.68zM793.088 801.92c0 0-636.864-266.944-636.864-266.944s180.416-440.704 180.416-440.704c0 0 636.864 266.88 636.864 266.88s-180.416 440.768-180.416 440.768z" />
<glyph unicode="&#xe914;" glyph-name="plus" d="M972.8 550.605c0 0-358.4 0-358.4 0s0 358.4 0 358.4c0 28.365-22.938 51.098-51.2 51.098 0 0-102.4 0-102.4 0-28.262 0-51.2-22.733-51.2-51.098 0 0 0-358.4 0-358.4s-358.4 0-358.4 0c-28.262 0-51.2-22.835-51.2-51.2 0 0 0-102.502 0-102.502 0-28.16 22.938-51.2 51.2-51.2 0 0 358.4 0 358.4 0s0-358.298 0-358.298c0-28.365 22.938-51.2 51.2-51.2 0 0 102.4 0 102.4 0 28.262 0 51.2 22.835 51.2 51.2 0 0 0 358.298 0 358.298s358.4 0 358.4 0c28.262 0 51.2 23.040 51.2 51.2 0 0 0 102.502 0 102.502 0 28.365-22.938 51.2-51.2 51.2z" />
<glyph unicode="&#xe915;" glyph-name="quote-top" horiz-adv-x="1205" d="M789.233-64.060c282.624 136.855 415.925 350.359 415.925 624.098 0 251.844-95.985 399.631-282.594 399.631-133.331 0-229.286-98.515-229.286-251.844 0-136.855 101.316-224.467 229.286-224.467 7.981 0 18.643 0 26.654 2.771 0-164.232-85.323-270.999-255.94-347.618 0 0 95.955-202.571 95.955-202.571zM96.075-64.060c282.594 136.855 415.895 350.359 415.895 624.098 0 251.844-95.985 399.631-282.594 399.631-133.301 0-229.286-98.515-229.286-251.844 0-136.855 101.316-224.467 229.286-224.467 7.981 0 18.643 0 26.654 2.771 0-164.232-85.323-270.999-255.94-347.618 0 0 95.985-202.571 95.985-202.571z" />
<glyph unicode="&#xe916;" glyph-name="quotebottom" horiz-adv-x="1205" d="M415.142 960.090c-282.383-136.855-415.593-350.359-415.593-624.068 0-251.844 95.895-399.631 282.383-399.631 133.21 0 229.105 98.515 229.105 251.814 0 136.855-101.225 224.467-229.105 224.467-7.981 0-18.643 0-26.624-2.771 0 164.292 85.233 271.029 255.729 347.678 0 0-95.895 202.511-95.895 202.511zM1107.757 960.090c-282.383-136.855-415.563-350.359-415.563-624.068 0-251.844 95.895-399.631 282.383-399.631 133.18 0 229.105 98.515 229.105 251.814 0 136.855-101.256 224.467-229.105 224.467-8.011 0-18.643 0-26.654-2.771 0 164.292 85.263 271.029 255.759 347.678 0 0-95.925 202.511-95.925 202.511z" />
<glyph unicode="&#xe917;" glyph-name="refresh" horiz-adv-x="1109" d="M875.776 809.557c-92.928 92.757-220.928 150.443-362.923 150.443-283.733 0-513.195-229.205-513.195-511.915 0-282.795 229.461-512.085 513.195-512.085 239.36 0 439.552 163.328 496.64 384.085 0 0-133.803 0-133.803 0-52.907-149.248-195.072-256.085-362.837-256.085-212.821 0-385.365 171.861-385.365 384.085 0 212.053 172.544 383.915 385.365 383.915 106.496 0 201.728-44.032 271.36-113.664 0 0-207.104-206.336-207.104-206.336s449.621 0 449.621 0c0 0 0 448 0 448s-150.955-150.443-150.955-150.443z" />
<glyph unicode="&#xe918;" glyph-name="rss" d="M31.061 444.314c-16.998 1.161-31.061 14.609-31.061 31.471 0 0 0 124.518 0 124.518 0 16.862 14.063 30.447 31.061 29.628 167.458-7.714 318.464-77.756 429.67-187.051 111.411-109.5 182.682-257.707 190.737-422.093 0.751-16.794-13.107-30.447-30.174-30.447 0 0-127.727 0-127.727 0-16.998 0-30.788 13.653-31.949 30.447-7.441 110.182-54.613 213.060-134.554 291.226-79.804 78.711-184.388 124.996-296.004 132.301zM247.125 124.143c-0.068-33.246-13.79-73.114-36.181-73.114 0 0-0.137 0-0.137 0-22.391-60.689-53.111-47.514-87.313-47.514-34.133 0-64.649 7.578-87.245 29.491-22.255 21.914-36.25 48.947-36.25 82.125 0 33.382 13.995 61.986 36.25 83.763 22.596 22.050 53.111 34.748 87.245 34.748 34.202 0 64.717-7.714 87.313-29.833 22.528-21.777 36.25-46.285 36.318-79.667zM0 805.786c0 0 0 124.587 0 124.587 0 16.725 14.199 30.31 31.266 29.764 259.959-7.987 494.933-114.961 667.17-284.262 172.169-169.028 281.259-399.838 289.382-655.087 0.546-16.794-13.244-30.447-30.31-30.447 0 0-127.522 0-127.522 0-17.067 0-30.857 13.653-31.471 30.447-15.974 408.644-351.573 738.167-767.249 754.005-17.067 0.683-31.266 14.268-31.266 30.993z" />
<glyph unicode="&#xe919;" glyph-name="settings" horiz-adv-x="1016" d="M886.101 515.925c-34.816 0-67.925 27.989-81.237 60.075s-9.557 75.093 15.019 99.669l44.373 44.373c24.576 24.576 24.576 64.512 0 89.088s-64.512 24.576-89.088 0c0 0-19.797-19.797-44.373-44.373s-67.584-28.331-99.669-15.019c-31.744 13.312-59.733 46.421-59.733 81.237v62.805c0 34.816-27.989 62.805-62.805 62.805s-62.805-27.989-62.805-62.805v-62.805c0-34.816-27.989-67.925-59.733-81.237s-75.093-9.557-99.669 15.019l-44.715 44.373c-24.576 24.576-64.512 24.576-89.088 0s-24.576-64.512 0-89.088l44.715-44.715c24.576-24.576 29.013-67.925 18.091-100.352-10.581-32.427-43.349-60.075-78.165-59.733l-68.949 0.683c-34.816 0-62.805-28.331-62.805-62.805 0-34.816 28.331-62.805 62.805-62.805h63.147c34.816 0 68.267-27.648 83.627-58.368s11.947-73.045-12.971-97.28l-49.152-48.469c-24.576-24.576-24.576-64.512 0-89.088s64.512-24.576 89.088 0l44.715 44.715c24.576 24.576 67.584 28.331 99.669 15.019s59.733-46.421 59.733-81.237v-63.147c0-34.816 28.331-62.805 62.805-62.805 34.816 0 62.805 27.989 62.805 62.805v63.147c0 34.816 27.989 67.925 59.733 81.237 32.085 13.312 75.093 9.557 99.669-15.019l44.373-44.373c24.576-24.576 64.512-24.576 89.088 0s24.576 64.512 0 89.088l-44.715 44.715c-24.576 24.576-28.331 67.584-15.019 99.669s46.421 59.733 81.237 59.733h62.805c34.816 0 62.805 27.989 62.805 62.805s-27.989 62.805-62.805 62.805h-62.805zM508.587 264.363c-104.107 0-188.757 84.651-188.757 188.757s84.651 188.757 188.757 188.757 188.757-84.651 188.757-188.757-84.651-188.757-188.757-188.757z" />
<glyph unicode="&#xe91a;" glyph-name="share" horiz-adv-x="1195" d="M1180.757 654.507c0 0-279.125-242.005-279.125-242.005-31.488-27.392-57.6-13.995-57.6 29.696 0 0 0 96.427 0 96.427-195.157 65.621-318.976-93.525-381.44-248.149-7.253-18.005-17.749-18.005-22.699 0.853-8.96 34.048-13.909 69.888-13.909 106.923 0 232.704 187.136 421.376 418.048 421.376 0 0 0 0.085 0 0.085s0 96.683 0 96.683c0 43.605 26.112 56.917 57.429 29.696 0 0 279.125-242.091 279.125-242.091 15.787-13.653 15.957-35.669 0.171-49.493zM322.901 657.835c-10.24-21.248-36.352-39.083-59.904-39.083 0 0-92.757 0-92.757 0s0-512.085 0-512.085c0 0 851.371 0 851.371 0s0 163.243 0 163.243c0 23.467 14.848 54.613 33.109 69.461 0 0 104.107 84.224 104.107 84.224 18.347 14.763 33.109 7.765 33.109-15.787 0 0 0-386.389 0-386.389 0-47.104-38.059-85.248-85.163-85.248 0 0-1021.696 0-1021.696 0-47.019 0-85.163 38.144-85.163 85.248 0 0 0 597.333 0 597.333s0 85.333 0 85.333c0 47.189 38.144 85.333 85.163 85.333 0 0 277.76 0 277.76 0 23.552 0 30.549-14.763 17.067-34.048-21.675-30.805-40.704-63.317-57.003-97.536z" />
<glyph unicode="&#xe91b;" glyph-name="stats" horiz-adv-x="910" d="M863.972-64c0 0-64 0-64 0-17.692 0-31.972 14.336-31.972 32.028 0 0 0 960 0 960 0 17.692 14.279 31.972 31.972 31.972 0 0 64 0 64 0 17.692 0 32.028-14.279 32.028-31.972 0 0 0-960 0-960 0-17.692-14.336-32.028-32.028-32.028zM607.972-64c0 0-64 0-64 0-17.692 0-31.972 14.336-31.972 32.028 0 0 0 576 0 576 0 17.692 14.279 31.972 31.972 31.972 0 0 64 0 64 0 17.692 0 32.028-14.279 32.028-31.972 0 0 0-576 0-576 0-17.692-14.336-32.028-32.028-32.028zM351.972-64c0 0-64 0-64 0-17.692 0-31.972 14.336-31.972 32.028 0 0 0 832 0 832 0 17.692 14.279 32.028 31.972 32.028 0 0 64 0 64 0 17.692 0 32.028-14.336 32.028-32.028 0 0 0-832 0-832 0-17.692-14.336-32.028-32.028-32.028zM95.972-64c0 0-64 0-64 0-17.692 0-31.972 14.336-31.972 32.028 0 0 0 704 0 704 0 17.692 14.279 31.972 31.972 31.972 0 0 64 0 64 0 17.692 0 32.028-14.279 32.028-31.972 0 0 0-704 0-704 0-17.692-14.336-32.028-32.028-32.028z" />
<glyph unicode="&#xe91c;" glyph-name="tag" horiz-adv-x="1195" d="M1114.453 704c0 0-22.613-128-22.613-128s-256 0-256 0c0 0-45.141-256-45.141-256s256 0 256 0c0 0-22.528-128-22.528-128s-256 0-256 0c0 0-45.141-255.915-45.141-255.915s-128 0-128 0c0 0 45.141 255.915 45.141 255.915s-256 0-256 0c0 0-45.141-255.915-45.141-255.915s-127.915 0-127.915 0c0 0 45.141 255.915 45.141 255.915s-256 0-256 0c0 0 22.528 128 22.528 128s256 0 256 0c0 0 45.141 256 45.141 256s-256 0-256 0c0 0 22.613 128 22.613 128s255.915 0 255.915 0c0 0 45.141 256 45.141 256s128 0 128 0c0 0-45.141-256-45.141-256s256 0 256 0c0 0 45.141 256 45.141 256s128 0 128 0c0 0-45.141-256-45.141-256s256 0 256 0zM451.925 576c0 0-45.141-256-45.141-256s256 0 256 0c0 0 45.141 256 45.141 256s-256 0-256 0z" />
<glyph unicode="&#xe91d;" glyph-name="time" d="M512-64c-282.843 0-512 229.157-512 512 0 282.917 229.157 512.073 512 512.073s512-229.157 512-512.073c0-282.843-229.157-512-512-512zM512 832c-211.822 0-384-172.105-384-384 0-211.822 172.178-384 384-384s384 172.178 384 384c0 211.895-172.178 384-384 384zM640 320.073c0 0-128 0-128 0s-64 0-64 0c-35.401 0-64 28.599-64 64 0 0 0 63.927 0 63.927s0 128.073 0 128.073c0 35.328 28.599 64 64 64s64-28.672 64-64c0 0 0-128.073 0-128.073s128 0 128 0c35.401 0 64-28.599 64-63.927 0-35.401-28.599-64-64-64z" />
<glyph unicode="&#xe91e;" glyph-name="tumblr" horiz-adv-x="683" d="M617.131 42.633c-42.735-19.524-81.579-33.246-116.258-41.165-34.748-7.782-72.431-11.81-112.64-11.81-45.875 0-86.426 5.598-121.651 16.862s-65.263 27.17-90.18 47.923c-24.917 20.753-28.399 35.772-37.956 59.187-9.694 23.279-15.428 74.342-15.428 118.716 0 0 0 303.377 0 303.377s-123.563 0-123.563 0c0 0 0 181.862 0 181.862 185.276 0 185.276 181.999 185.276 242.62 0 0 185.344 0 185.344 0s0-245.282 0-245.282c0 0 185.344 2.662 185.344 2.662s0-181.862 0-181.862c0 0-185.344 0-185.344 0s0-242.688 0-242.688c0-56.252-6.758-98.509 19.456-126.020 17.749-18.5 47.65-19.319 76.186-19.319 50.859 0 101.239 16.043 151.415 47.991 0 0 0-153.054 0-153.054z" />
<glyph unicode="&#xe91f;" glyph-name="twitter" horiz-adv-x="1260" d="M1254.085 842.476c-46.159-20.165-95.705-33.713-147.771-39.857 53.090 31.114 93.814 80.817 113.113 139.894-49.782-29.066-104.842-50.097-163.446-61.361-46.946 49.073-113.822 79.793-187.786 79.793-142.257 0-257.497-113.113-257.497-252.77 0-19.85 2.363-39.070 6.695-57.58-213.858 10.476-403.614 110.986-530.511 264.034-22.055-37.258-34.737-80.896-34.737-126.976 0-87.906 59.392-165.1 128.473-210.55-42.22 1.497-102.636 12.839-102.636 31.823 0-1.26 0-2.284 0-3.308 0-122.565 74.752-224.571 192.433-247.887-21.583-5.671-51.279-8.822-74.752-8.822-16.62 0-36.234 1.654-51.988 4.647 32.768-100.431 126.11-173.529 238.671-175.655-88.064-67.663-199.995-108.071-320.433-108.071-20.874 0-41.748 1.182-61.913 3.466 113.979-71.68 248.99-113.664 394.319-113.664 473.482 0 732.16 385.182 732.16 719.242 0 10.87-0.315 21.819-0.866 32.61 50.412 35.84 93.972 80.266 128.473 130.993z" />
<glyph unicode="&#xe920;" glyph-name="user" d="M638.683 381.659c0 55.369 46.080 37.23 66.341 138.825 8.411 42.13 49.152 0.658 56.978 96.768 0 38.254-22.235 47.835-22.235 47.835s11.264 56.539 15.726 100.352c5.486 54.272-33.792 194.779-243.493 194.779s-248.978-140.507-243.493-194.779c4.389-43.813 15.726-100.352 15.726-100.352s-22.235-9.582-22.235-47.835c7.753-96.11 48.494-54.638 56.905-96.768 20.334-101.595 66.414-83.456 66.414-138.825 0-92.379-48.274-135.461-199.314-186.514-151.552-51.273-186.002-103.57-186.002-139.264 0-14.921 0-37.888 0-59.977 0-32.987 28.672-59.758 64-59.758 0 0 448 0 448 0s448 0 448 0c35.328 0 64 26.77 64 59.758 0 22.089 0 45.056 0 59.977 0 35.694-34.45 87.991-186.002 139.264-151.040 51.054-199.314 94.135-199.314 186.514z" />
<glyph unicode="&#xe921;" glyph-name="vimeo" horiz-adv-x="1182" d="M1135.695 724.48c-63.646-353.595-419.761-652.918-526.809-721.447-107.126-68.057-204.8 27.569-240.246 99.879-40.566 82.708-162.107 530.274-193.93 567.375-31.902 37.1-127.37-37.1-127.37-37.1s-46.316 59.786-46.316 59.786c0 0 194.009 228.116 341.543 256.551 156.436 30.326 156.357-236.623 193.93-384.709 36.313-143.281 60.889-225.359 92.633-225.359 31.823 0 92.633 79.872 159.193 202.516 66.718 122.565-2.836 230.951-133.041 153.994 51.988 307.909 544.138 381.794 480.414 28.514z" />
<glyph unicode="&#xe922;" glyph-name="zoom" horiz-adv-x="1097" d="M1005.202 45.349c0 0-199.168 197.851-199.168 197.851-0.073 0.219-0.219 0.219-0.366 0.293 56.466 74.971 90.331 167.79 90.331 268.654 0 247.003-200.997 448.073-448 448.073s-448-201.070-448-448.073c0-247.077 200.997-448 448-448 100.791 0 193.609 33.865 268.581 90.258 0.073-0.146 0.073-0.293 0.219-0.439 0 0 197.925-199.022 197.925-199.022 12.507-12.581 28.891-18.798 45.275-18.798s32.768 6.217 45.202 18.798c25.015 24.942 25.015 65.463 0 90.405zM448 192.146c-176.421 0-320 143.579-320 320s143.579 320 320 320c176.421 0 320-143.579 320-320s-143.579-320-320-320z" />
</font>
</defs>
</svg>
